<?xml version="1.0" standalone="no"?>
<!DOCTYPE svg PUBLIC "-//W3C//DTD SVG 1.1//EN" "http://www.w3.org/Graphics/SVG/1.1/DTD/svg11.dtd" >
<svg xmlns="http://www.w3.org/2000/svg">
<metadata>
Created by FontPrep 20130207 at Thu Dec 11 16:33:08 2014
 By James Azzopardi
Typeface data Copyright (c) 1992-94 The Monotype Corporation. Copyright 1994 Microsoft Corporation. All rights reserved.
</metadata>
<defs>
<font id="bc25d058c0d9579dfca1bd59a8518491" horiz-adv-x='1024' >
  <font-face 
    font-family="AbadiMT-CondensedLight"
    font-weight="300"
    font-stretch="condensed"
    units-per-em="2048"
    panose-1="2 11 3 6 3 1 1 1 1 3"
    ascent="1638"
    descent="-410"
    x-height="953"
    cap-height="1395"
    bbox="-352 -505 2069 1869"
    underline-thickness="102"
    underline-position="-154"
    unicode-range="U+0020-F002"
  />
<missing-glyph horiz-adv-x="1536" 
d="M288 32h960v1216h-960v-1216zM256 0v1280h1024v-1280h-1024z" />
    <glyph glyph-name=".notdef" horiz-adv-x="1536" 
d="M288 32h960v1216h-960v-1216zM256 0v1280h1024v-1280h-1024z" />
    <glyph glyph-name=".null" horiz-adv-x="0" 
 />
    <glyph glyph-name="nonmarkingreturn" horiz-adv-x="469" 
 />
    <glyph glyph-name="space" unicode=" " horiz-adv-x="469" 
 />
    <glyph glyph-name="exclam" unicode="!" horiz-adv-x="427" 
d="M208 231q77 -1 77 -127q1 -126 -73 -126t-74 126q0 60 20.5 93.5t49.5 33.5zM144 1395h140l-20 -1046h-105z" />
    <glyph glyph-name="quotedbl" unicode="&#x22;" horiz-adv-x="576" 
d="M345 1395h151v-233l-31 -272h-89l-31 272v233zM80 1395h149v-233l-30 -272h-89l-30 272v233z" />
    <glyph glyph-name="numbersign" unicode="#" horiz-adv-x="1365" 
d="M503 856l-82 -388h442l81 388h-441zM91 960h331l87 411h103l-87 -411h440l84 411h105l-87 -411h206v-104h-224l-84 -388h308v-106h-328l-85 -409h-105l87 409h-442l-83 -409h-106l86 409h-206v106h226l83 388h-309v104z" />
    <glyph glyph-name="dollar" unicode="$" horiz-adv-x="896" 
d="M710 367q0 175 -190 240v-479q190 64 190 239zM228 988q0 -176 189 -230v456q-189 -50 -189 -226zM417 1481h103v-131q146 -15 252 -96v-167q-111 113 -252 132v-484q330 -91 330 -348q0 -104 -49 -190.5t-119 -130t-162 -66.5v-148h-103v129q-172 8 -328 115v173
q160 -145 328 -153v515q-328 73 -328 349q0 144 88.5 243t239.5 127v131z" />
    <glyph glyph-name="percent" unicode="%" horiz-adv-x="1451" 
d="M1108 614q-153 0 -153 -275q0 -118 40.5 -186.5t108.5 -68.5t107 71t39 201t-42.5 194t-99.5 64zM1092 718q142 0 215 -102t73 -274t-75.5 -268t-203.5 -96t-200.5 103t-72.5 275t77 267t187 95zM343 1312q-69 0 -108.5 -75.5t-39.5 -197.5t41.5 -190t109.5 -68t108 73.5
t40 196.5t-41 192t-110 69zM734 1179q-70 0 -143 42q26 -90 26 -185q0 -156 -71.5 -257.5t-201.5 -101.5t-201.5 98.5t-71.5 272.5t73 272t196 98q70 0 186 -68t215 -67q99 0 159 52t109 158h114l-684 -1589h-115l567 1317q-87 -42 -157 -42z" />
    <glyph glyph-name="ampersand" unicode="&#x26;" horiz-adv-x="981" 
d="M197 402q0 -128 70 -217t180 -89q136 0 239 149l-279 525q-113 -81 -161.5 -160.5t-48.5 -207.5zM277 1130q0 130 79 209t199 79q72 0 161 -34v-133q-74 51 -150 51t-121.5 -46.5t-45.5 -129.5t60 -198l281 -540q44 164 44 328v77h124q-4 -315 -98 -523l138 -270h-138
l-70 148q-124 -170 -292 -170t-274.5 118t-106.5 296q0 136 65.5 245t227.5 220l-17 37q-66 146 -66 236z" />
    <glyph glyph-name="quotesingle" unicode="'" horiz-adv-x="448" 
d="M150 1395h148v-235l-26 -267h-91l-31 267v235z" />
    <glyph glyph-name="parenleft" unicode="(" horiz-adv-x="640" 
d="M305 456q0 -310 48.5 -481.5t173.5 -403.5h-114q-136 243 -189.5 453t-53.5 456q0 481 243 915h114q-127 -219 -174.5 -424t-47.5 -515z" />
    <glyph glyph-name="parenright" unicode=")" horiz-adv-x="640" 
d="M335 510q0 310 -48 481.5t-174 403.5h114q136 -243 189.5 -453t53.5 -456q0 -481 -243 -915h-114q128 219 175 424t47 515z" />
    <glyph glyph-name="asterisk" unicode="*" horiz-adv-x="896" 
d="M399 1414h98v-255l221 125l48 -83l-224 -127l224 -121l-48 -89l-221 127v-254h-98v254l-221 -127l-48 89l217 121l-217 127l48 83l221 -125v255z" />
    <glyph glyph-name="plus" unicode="+" horiz-adv-x="1365" 
d="M141 718h485v488h108v-488h489v-108h-489v-482h-108v482h-485v108z" />
    <glyph glyph-name="comma" unicode="," horiz-adv-x="427" 
d="M140 90q0 71 29.5 111t69.5 40t64.5 -43t24.5 -107q0 -162 -112 -354h-69q60 128 69 244q-76 38 -76 109z" />
    <glyph glyph-name="hyphen" unicode="-" horiz-adv-x="576" 
d="M67 550h443v-125h-443v125z" />
    <glyph glyph-name="period" unicode="." horiz-adv-x="427" 
d="M212 239q86 0 86 -125t-84 -125q-41 0 -63 35t-22 91t24.5 90t58.5 34z" />
    <glyph glyph-name="slash" unicode="/" horiz-adv-x="576" 
d="M434 1423h108l-403 -1586h-106z" />
    <glyph glyph-name="zero" unicode="0" horiz-adv-x="939" 
d="M477 1242q-139 0 -210 -154t-71 -424t71.5 -420t197.5 -150q80 0 148.5 68.5t98.5 224.5t30 299q0 270 -78.5 413t-186.5 143zM464 1356q136 0 233 -94.5t135.5 -270t38.5 -344.5q0 -306 -111.5 -487.5t-295.5 -181.5q-116 0 -213.5 85.5t-141 257t-43.5 375.5t58.5 364
t151 228t188.5 68z" />
    <glyph glyph-name="one" unicode="1" horiz-adv-x="939" 
d="M472 1333h103v-1333h-119v1008h-222v96h52q86 0 136 47.5t50 141.5v40z" />
    <glyph glyph-name="two" unicode="2" horiz-adv-x="939" 
d="M104 0v74q0 275 91.5 365t333.5 302q83 73 118.5 132t35.5 147t-67.5 154t-160.5 66q-131 0 -286 -127v144q167 99 307 99t239 -91.5t99 -253.5q0 -120 -56 -201.5t-232 -225.5t-237 -233t-61 -178v-56h605v-117h-729z" />
    <glyph glyph-name="three" unicode="3" horiz-adv-x="939" 
d="M810 385q0 -172 -118 -289.5t-264 -117.5t-271 84v149q125 -117 245 -117t199 80.5t79 201.5t-74 194.5t-208 73.5h-115v111h63q123 0 198.5 69.5t75.5 177.5t-60.5 173.5t-146.5 65.5q-128 0 -256 -118v148q143 85 275 85t224.5 -88t92.5 -224t-60 -208t-173 -124
q294 -46 294 -327z" />
    <glyph glyph-name="four" unicode="4" horiz-adv-x="939" 
d="M589 498v638l-387 -638h387zM715 1333v-835h168v-117h-168v-381h-126v381h-507v117l507 835h126z" />
    <glyph glyph-name="five" unicode="5" horiz-adv-x="939" 
d="M467 727q-107 0 -187 -91h-110v697h592v-116h-469v-465q95 93 224 93q130 0 228.5 -117.5t98.5 -299.5t-121.5 -316t-295.5 -134q-113 0 -257 79v148q140 -111 258 -111t202 98t84 228t-70 218.5t-177 88.5z" />
    <glyph glyph-name="six" unicode="6" horiz-adv-x="939" 
d="M513 701q-174 0 -274 -257q15 -155 91 -252.5t172 -97.5t158.5 86.5t62.5 219.5t-59.5 217t-150.5 84zM529 815q141 0 232.5 -116.5t91.5 -294.5t-103 -302t-253 -124q-118 0 -215 83t-139 246t-42 363t60.5 358.5t157.5 243t215 84.5t234 -65v-144q-104 92 -206 92
t-218.5 -111t-116.5 -477v-43q139 207 302 207z" />
    <glyph glyph-name="seven" unicode="7" horiz-adv-x="939" 
d="M105 1333h743v-116l-505 -1217h-134l511 1217h-615v116z" />
    <glyph glyph-name="eight" unicode="8" horiz-adv-x="939" 
d="M206 337q0 -102 76 -171.5t186 -69.5t186 74t76 183q0 202 -263 294q-261 -130 -261 -310zM666 1040q0 85 -56 143.5t-139 58.5t-142.5 -61t-59.5 -153q0 -167 198 -258q199 117 199 270zM140 1018q0 144 94 241t236 97t234 -83.5t92 -212.5q0 -94 -53 -171t-176 -156
q164 -75 228 -162t64 -206q0 -175 -117.5 -281t-279.5 -106t-274 102t-112 252q0 109 67.5 191t219.5 164q-223 134 -223 331z" />
    <glyph glyph-name="nine" unicode="9" horiz-adv-x="939" 
d="M450 1240q-100 0 -164 -87t-64 -217t59 -216t144 -86t160.5 64.5t122.5 191.5q-25 159 -91.5 254.5t-166.5 95.5zM418 520q-139 0 -231 114t-92 294t99.5 304t256.5 124q126 0 219 -86.5t134.5 -242t41.5 -341.5t-53 -355t-160 -261t-222 -92t-232 67v141q94 -90 205 -90
q169 0 240 146t82.5 242.5t11.5 242.5q-132 -207 -300 -207z" />
    <glyph glyph-name="colon" unicode=":" horiz-adv-x="427" 
d="M212 239q86 0 86 -125t-84 -125q-41 0 -63 35t-22 91t24.5 90t58.5 34zM212 959q86 0 86 -125t-84 -125q-41 0 -63 35.5t-22 91.5t24.5 89.5t58.5 33.5z" />
    <glyph glyph-name="semicolon" unicode=";" horiz-adv-x="427" 
d="M140 90q0 71 29.5 111t69.5 40t64.5 -43t24.5 -107q0 -162 -112 -354h-69q60 128 69 244q-76 38 -76 109zM222 962q90 0 90 -122q0 -56 -24 -92t-62 -36t-62 35t-24 88t23 90t59 37z" />
    <glyph glyph-name="less" unicode="&#x3c;" horiz-adv-x="1365" 
d="M1222 163l-1078 456v97l1078 455v-118l-934 -385l934 -388v-117z" />
    <glyph glyph-name="equal" unicode="=" horiz-adv-x="1365" 
d="M144 488h1078v-108h-1078v108zM144 954h1078v-109h-1078v109z" />
    <glyph glyph-name="greater" unicode="&#x3e;" horiz-adv-x="1365" 
d="M144 1171l1078 -457v-97l-1078 -454v117l934 386l-934 387v118z" />
    <glyph glyph-name="question" unicode="?" horiz-adv-x="853" 
d="M362 231q74 -1 74 -127t-74 -126t-74 126t74 127zM442 1418q152 0 259.5 -94.5t107.5 -250.5q0 -106 -50 -176.5t-206 -206.5q-78 -68 -103 -119t-25 -137v-84h-124v71q0 132 40.5 206t160.5 177t148.5 154t28.5 109q0 96 -70 161.5t-189 65.5t-306 -128v143
q176 109 328 109z" />
    <glyph glyph-name="at" unicode="@" horiz-adv-x="1643" 
d="M891 837q-129 0 -221 -116t-92 -274q0 -90 46 -149t108 -59t116.5 31t101.5 91.5t67.5 114t38.5 153.5l22 121q-92 87 -187 87zM1124 257q0 -6 1 -16q176 53 268 211t92 367t-137 339.5t-384 130.5t-524.5 -171.5t-277.5 -682.5q0 -308 168 -495.5t464 -187.5t519 159
l-19 -150q-85 -58 -236.5 -95t-279.5 -37q-209 0 -392 106.5t-272.5 297.5t-89.5 423q0 421 268 691.5t683 270.5q181 0 325 -69t232 -204t88 -343t-94 -367.5t-214.5 -234t-319.5 -102.5q-1 49 -1 93t5 113q-36 -76 -115.5 -136t-173.5 -60q-124 0 -195 95t-71 244
t61.5 264t168.5 185t217 70t219 -100l48 83h106l-99 -449q-38 -171 -38 -243z" />
    <glyph glyph-name="A" unicode="A" horiz-adv-x="896" 
d="M443 1225l-155 -630h313zM378 1395h134l389 -1395h-152l-118 482h-371l-117 -482h-149z" />
    <glyph glyph-name="B" unicode="B" horiz-adv-x="1003" 
d="M259 671v-554h225q156 0 240.5 80t84.5 216t-91 197t-281 61h-178zM714 1059q0 218 -262 218h-193v-489h152q142 0 222.5 70t80.5 201zM951 405q0 -228 -146.5 -316.5t-284.5 -88.5h-396v1395h370q163 0 261.5 -80.5t98.5 -242.5q0 -231 -233 -329q330 -30 330 -338z" />
    <glyph glyph-name="C" unicode="C" 
d="M514 -22q-133 0 -240 96t-156 265t-49 362q0 318 126 517.5t342 199.5q124 0 251 -85v-162q-133 123 -246 123q-153 0 -243 -161t-90 -433t86.5 -435t237.5 -163q116 0 255 127v-165q-141 -86 -274 -86z" />
    <glyph glyph-name="D" unicode="D" horiz-adv-x="1003" 
d="M789 729q0 544 -342 544h-186v-1154h186q182 0 262 153t80 457zM447 1395q484 0 484 -709q0 -194 -54.5 -358t-168 -246t-261.5 -82h-322v1395h322z" />
    <glyph glyph-name="E" unicode="E" horiz-adv-x="896" 
d="M130 1395h677v-118h-542v-491h512v-116h-512v-554h542v-116h-677v1395z" />
    <glyph glyph-name="F" unicode="F" 
d="M129 1395h654v-120h-519v-521h488v-113h-488v-641h-135v1395z" />
    <glyph glyph-name="G" unicode="G" horiz-adv-x="917" 
d="M63 684q0 333 138 533.5t360 200.5q125 0 257 -86v-168q-137 129 -260 129q-162 0 -259.5 -167.5t-97.5 -427.5t81.5 -427t208.5 -167q90 0 155 89.5t65 219.5v166h-257v119h392v-698h-86l-49 137q-95 -159 -238 -159q-114 0 -215 95t-148 263t-47 348z" />
    <glyph glyph-name="H" unicode="H" horiz-adv-x="1024" 
d="M129 1395h135v-606h492v606h136v-1395h-136v671h-492v-671h-135v1395z" />
    <glyph glyph-name="I" unicode="I" horiz-adv-x="405" 
d="M133 1395h136v-1395h-136v1395z" />
    <glyph glyph-name="J" unicode="J" horiz-adv-x="469" 
d="M342 218q0 -240 -200 -240q-67 0 -120 22v145q48 -31 94 -31t68 28.5t22 102.5v1150h136v-1177z" />
    <glyph glyph-name="K" unicode="K" horiz-adv-x="917" 
d="M133 1395h135v-664l446 664h161l-382 -542l420 -853h-158l-341 731l-146 -201v-530h-135v1395z" />
    <glyph glyph-name="L" unicode="L" horiz-adv-x="811" 
d="M135 1395h137v-1278h518v-117h-655v1395z" />
    <glyph glyph-name="M" unicode="M" horiz-adv-x="1195" 
d="M1061 1395v-1395h-123v890l1 229q0 43 -1 128q-36 -137 -96 -294l-243 -633l-206 532q-60 154 -143 383q13 -451 13 -501v-734h-129v1395h164l301 -768l299 768h163z" />
    <glyph glyph-name="N" unicode="N" horiz-adv-x="1024" 
d="M775 610v785h121v-1395h-136l-400 895q-17 38 -64 162l-48 123q-3 -42 -3 -49l5 -108l1 -155l-3 -60v-808h-121v1395h138l521 -1174q-11 376 -11 389z" />
    <glyph glyph-name="O" unicode="O" horiz-adv-x="1045" 
d="M534 1294q-168 0 -247.5 -171t-79.5 -439t83 -423.5t231 -155.5t232 160t84 447t-88.5 434.5t-214.5 147.5zM521 1418q209 0 334 -195t125 -530t-129 -525t-330 -190t-328 187.5t-127 522.5t123 532.5t332 197.5z" />
    <glyph glyph-name="P" unicode="P" horiz-adv-x="960" 
d="M267 1275v-523h205q131 0 211 72t80 196t-66 189.5t-184 65.5h-246zM130 1395h385q182 0 286 -90.5t104 -274.5t-118 -290t-312 -106h-208v-634h-137v1395z" />
    <glyph glyph-name="Q" unicode="Q" horiz-adv-x="1045" 
d="M833 694q0 272 -81 434.5t-229 162.5t-234 -152.5t-86 -446.5t88 -442t235 -148q28 0 41 6l-141 333h124l118 -282q165 144 165 535zM892 -157q58 0 104 26v-120q-62 -21 -117 -21q-107 0 -159.5 66t-105.5 196q-55 -12 -99 -12q-190 0 -320.5 180t-130.5 522t124 540
t334 198q142 0 248 -95t156 -266t50 -371q0 -455 -256 -650q37 -98 75.5 -145.5t96.5 -47.5z" />
    <glyph glyph-name="R" unicode="R" horiz-adv-x="939" 
d="M737 1042q0 231 -260 231h-209v-522h139q148 0 239 78.5t91 212.5zM874 1057q0 -273 -286 -366q101 -26 149.5 -89.5t73.5 -186.5l82 -415h-145l-55 336q-27 160 -90.5 231t-183.5 71h-151v-638h-133v1395h336q182 0 292.5 -83.5t110.5 -254.5z" />
    <glyph glyph-name="S" unicode="S" horiz-adv-x="853" 
d="M369 116q109 0 194.5 78t85.5 188t-56 172q-57 62 -217 122q-317 120 -317 364q0 157 112.5 267.5t255.5 110.5t280 -96v-181q-87 81 -143.5 111t-119.5 30q-105 0 -174.5 -72t-69.5 -168t62 -151t194 -109t192.5 -94.5t101 -115.5t40.5 -171q0 -179 -124 -301t-283 -122
t-323 115v175q107 -87 173.5 -119.5t135.5 -32.5z" />
    <glyph glyph-name="T" unicode="T" 
d="M24 1395h783v-118h-328v-1277h-133v1277h-322v118z" />
    <glyph glyph-name="U" unicode="U" horiz-adv-x="960" 
d="M108 1395h135v-1004q0 -135 63.5 -214t175.5 -79t177 76t65 217v1004h137v-1004q0 -189 -103.5 -301t-277.5 -112t-273 120.5t-99 321.5v975z" />
    <glyph glyph-name="V" unicode="V" horiz-adv-x="917" 
d="M3 1395h149l309 -1215l294 1215h150l-380 -1395h-135z" />
    <glyph glyph-name="W" unicode="W" horiz-adv-x="1131" 
d="M985 1395h140l-253 -1395h-132l-148 929l-34 262q-32 -259 -55 -399l-129 -792h-130l-256 1395h150l129 -847q7 -38 17 -128t26 -198l34 253q6 59 12 94l130 826h133l143 -847l46 -326l46 326z" />
    <glyph glyph-name="X" unicode="X" horiz-adv-x="853" 
d="M58 1395h160l199 -500l193 500h158l-275 -623l351 -772h-159l-268 648l-261 -648h-156l343 772z" />
    <glyph glyph-name="Y" unicode="Y" 
d="M488 0h-137v639l-343 756h158l256 -617l245 617h156l-335 -756v-639z" />
    <glyph glyph-name="Z" unicode="Z" horiz-adv-x="853" 
d="M56 1395h707v-119l-608 -1158h693v-118h-843v118l602 1158h-551v119z" />
    <glyph glyph-name="bracketleft" unicode="[" horiz-adv-x="683" 
d="M274 1395h311v-78h-200v-1675h200v-83h-311v1836z" />
    <glyph glyph-name="backslash" unicode="\" horiz-adv-x="576" 
d="M21 1425h109l424 -1588h-106z" />
    <glyph glyph-name="bracketright" unicode="]" horiz-adv-x="683" 
d="M409 -441h-311v78h201v1676h-201v82h311v-1836z" />
    <glyph glyph-name="asciicircum" unicode="^" horiz-adv-x="1344" 
d="M671 1421l448 -537l-65 -54l-383 461l-384 -461l-63 54z" />
    <glyph glyph-name="underscore" unicode="_" horiz-adv-x="1024" 
d="M-12 -154h1048v-102h-1048v102z" />
    <glyph glyph-name="grave" unicode="`" horiz-adv-x="683" 
d="M179 1384h147l150 -293h-83z" />
    <glyph glyph-name="a" unicode="a" 
d="M196 272q0 -80 48 -129.5t130 -49.5t141 76t59 195v127q-247 -30 -312.5 -84.5t-65.5 -134.5zM67 268q0 124 95.5 207.5t411.5 113.5v82q0 81 -52.5 133.5t-130.5 52.5q-111 0 -252 -110v143q153 85 257 85q150 1 227 -87t77 -236v-503q0 -55 52 -55q27 0 54 15v-109
q-48 -22 -98 -22q-130 0 -134 153q-99 -153 -239 -153q-114 0 -191 83t-77 207z" />
    <glyph glyph-name="b" unicode="b" horiz-adv-x="875" 
d="M677 476q0 166 -63 274.5t-163 108.5t-157.5 -89.5t-57.5 -209.5v-357q87 -109 191 -109q105 0 177.5 108t72.5 274zM477 975q145 0 238.5 -142.5t93.5 -352.5t-105 -356t-258 -146q-58 0 -100.5 22.5t-109.5 83.5l-33 -84h-93v1416h126v-601q96 160 241 160z" />
    <glyph glyph-name="c" unicode="c" horiz-adv-x="725" 
d="M460 -22q-175 0 -284 140.5t-109 350.5t113.5 358t293.5 148q100 0 204 -60v-139q-101 81 -195 81q-122 0 -205 -108.5t-83 -266.5t75 -272t202 -114q93 0 206 82v-135q-112 -65 -218 -65z" />
    <glyph glyph-name="d" unicode="d" horiz-adv-x="875" 
d="M450 856q-109 0 -183 -106t-74 -274t65 -275.5t160 -107.5t157 79t62 200v389q-78 95 -187 95zM427 975q103 0 210 -93v513h127v-1395h-127v134q-95 -156 -241 -156t-239 147.5t-93 350.5t102.5 351t260.5 148z" />
    <glyph glyph-name="e" unicode="e" 
d="M442 861q-76 0 -142.5 -59.5t-94.5 -178.5h432q-4 119 -61.5 178.5t-133.5 59.5zM430 -22q-158 0 -262.5 137t-104.5 359t108.5 361.5t264.5 139.5t245.5 -112.5t89.5 -284.5v-62h-579v-49q0 -186 77.5 -281t181.5 -95q144 0 289 159v-150q-152 -122 -310 -122z" />
    <glyph glyph-name="f" unicode="f" horiz-adv-x="427" 
d="M133 1168q0 250 196 250q49 0 112 -23v-115q-49 22 -89 22t-67 -27.5t-27 -71.5v-250h183v-110h-183v-843h-125v843h-129v110h129v215z" />
    <glyph glyph-name="g" unicode="g" horiz-adv-x="875" 
d="M196 481q0 -159 62 -264.5t160 -105.5t158.5 83t60.5 215v340q-85 105 -192 105t-178 -107t-71 -266zM414 975q136 0 223 -110l33 88h93v-1008q0 -193 -105 -302t-243 -109t-287 102v149q145 -139 262 -139t182 83t65 216v205q-101 -150 -241 -150t-236 140t-96 342
t107 347.5t243 145.5z" />
    <glyph glyph-name="h" unicode="h" horiz-adv-x="853" 
d="M486 975q117 0 187.5 -82t70.5 -209v-684h-125v684q0 79 -45.5 126.5t-126.5 47.5t-145.5 -81t-64.5 -188v-589h-126v1395h126v-572q94 152 249 152z" />
    <glyph glyph-name="i" unicode="i" horiz-adv-x="341" 
d="M110 953h125v-953h-125v953zM174 1375q74 0 74 -116t-74 -116t-75 116q1 116 75 116z" />
    <glyph glyph-name="j" unicode="j" horiz-adv-x="341" 
d="M12 -349q97 0 97 132v1170h124v-1170q0 -249 -198 -249q-58 0 -107 22v120q42 -25 84 -25zM172 1375q74 1 73 -115q1 -116 -73 -116t-74 116t74 115z" />
    <glyph glyph-name="k" unicode="k" horiz-adv-x="747" 
d="M102 1395h126v-861l338 419h147l-297 -350l342 -603h-152l-268 513l-110 -132v-381h-126v1395z" />
    <glyph glyph-name="l" unicode="l" horiz-adv-x="341" 
d="M109 1395h126v-1395h-126v1395z" />
    <glyph glyph-name="m" unicode="m" horiz-adv-x="1237" 
d="M1124 711v-711h-126v711q0 68 -36.5 108t-103.5 40t-123.5 -76t-56.5 -172v-611h-126v711q0 146 -123 146q-85 0 -140 -75.5t-55 -189.5v-592h-123v953h110l13 -122q82 144 232 144t201 -159q78 159 227 159q109 0 169.5 -72.5t60.5 -191.5z" />
    <glyph glyph-name="n" unicode="n" horiz-adv-x="853" 
d="M490 975q122 0 190 -82t68 -219v-674h-127v674q0 84 -44.5 134t-126.5 50t-148 -83.5t-66 -192.5v-582h-125v953h113l12 -136q100 158 254 158z" />
    <glyph glyph-name="o" unicode="o" horiz-adv-x="875" 
d="M448 857q-125 0 -188 -106t-63 -276t62 -276t171 -106t177.5 98.5t68.5 282.5t-67 283.5t-161 99.5zM440 975q157 0 262 -136.5t105 -361.5q0 -130 -41.5 -245.5t-128.5 -184.5t-202 -69q-171 0 -269.5 141t-98.5 331t62 313.5t151.5 167.5t159.5 44z" />
    <glyph glyph-name="p" unicode="p" horiz-adv-x="875" 
d="M677 472q0 165 -63.5 275.5t-161.5 110.5t-158.5 -87.5t-60.5 -201.5v-381q83 -95 191 -95t180.5 107t72.5 272zM437 -22q-108 0 -204 92v-514h-124v1397h112l12 -138q102 160 248 160t235.5 -141.5t89.5 -369.5t-115.5 -357t-253.5 -129z" />
    <glyph glyph-name="q" unicode="q" horiz-adv-x="875" 
d="M197 468q0 -168 63.5 -271.5t159.5 -103.5t158 82t62 211v366q-89 105 -195 105t-177 -110.5t-71 -278.5zM426 975q118 0 214 -110l32 88h94v-1397h-126v574q-106 -152 -234 -152q-153 0 -246 144t-93 350t106 354.5t253 148.5z" />
    <glyph glyph-name="r" unicode="r" horiz-adv-x="576" 
d="M467 857q-95 0 -159 -89t-64 -204v-564h-123v953h112l11 -141q89 163 222 163q49 0 99 -22v-118q-58 22 -98 22z" />
    <glyph glyph-name="s" unicode="s" horiz-adv-x="747" 
d="M322 94q112 0 176 49t64 115t-42.5 103t-178.5 77t-205 99t-69 169t92.5 189.5t216.5 79.5t264 -78v-142q-119 104 -244 104q-86 0 -141.5 -46t-55.5 -106q-1 -59 49 -95t164 -68q280 -78 280 -266q0 -127 -103 -213.5t-243 -86.5t-277 87v143q141 -114 253 -114z" />
    <glyph glyph-name="t" unicode="t" horiz-adv-x="491" 
d="M268 177q0 -85 88 -85q40 0 93 32v-124q-66 -22 -136 -22t-119 45t-49 136v684h-131v110h131l10 284h113v-284h181v-110h-181v-666z" />
    <glyph glyph-name="u" unicode="u" horiz-adv-x="853" 
d="M227 283q0 -190 160 -190q100 0 163.5 84.5t63.5 217.5v558h125v-953h-125v131q-107 -153 -240 -153q-134 0 -202.5 83t-68.5 222v670h124v-670z" />
    <glyph glyph-name="v" unicode="v" horiz-adv-x="725" 
d="M1 953h137l225 -795l218 795h135l-295 -953h-122z" />
    <glyph glyph-name="w" unicode="w" horiz-adv-x="1003" 
d="M876 953h124l-219 -953h-114l-114 535q-27 89 -50 260q-12 -115 -38 -246l-108 -549h-118l-232 953h132l100 -490l62 -334q19 120 56 318l91 506h115l118 -538q15 -69 28 -143t24 -129q25 169 48 291z" />
    <glyph glyph-name="x" unicode="x" horiz-adv-x="704" 
d="M43 953h151l150 -342l152 342h144l-227 -438l278 -515h-153l-194 421l-198 -421h-143l271 515z" />
    <glyph glyph-name="y" unicode="y" horiz-adv-x="725" 
d="M142 -466q-36 0 -77 22v117q42 -13 69 -13q56 0 90 49.5t78 203.5l21 76l-314 964h139l235 -798l205 798h135l-320 -1111q-51 -178 -105 -243t-156 -65z" />
    <glyph glyph-name="z" unicode="z" horiz-adv-x="768" 
d="M84 953h617v-121l-498 -715h528v-117h-677v117l494 715h-464v121z" />
    <glyph glyph-name="braceleft" unicode="{" horiz-adv-x="683" 
d="M406 910q0 -181 -22.5 -253.5t-62 -118.5t-113.5 -82q106 -45 152.5 -136.5t46.5 -283.5l-1 -180q0 -171 34.5 -206.5t144.5 -42.5v-112h-27q-130 0 -197.5 77t-67.5 270v210q0 199 -46.5 265.5t-146.5 72.5v131q62 3 127.5 49t65.5 282v135q0 162 17.5 240.5t82 132.5
t150.5 54l11 3q27 0 31 -3v-110q-98 -4 -130 -31t-40.5 -104.5t-8.5 -258.5z" />
    <glyph glyph-name="bar" unicode="|" horiz-adv-x="1045" 
d="M468 1418h109v-1884h-109v1884z" />
    <glyph glyph-name="braceright" unicode="}" horiz-adv-x="683" 
d="M97 -501v113q98 4 130 31t41 104.5t9 258.5t22 254t61.5 118.5t113.5 81.5q-105 45 -151.5 136.5t-46.5 283.5v180q0 130 -22.5 187.5t-156.5 61.5v109h28q129 0 196.5 -76t67.5 -268v-210q0 -191 44.5 -263.5t148.5 -74.5v-131q-62 -3 -127.5 -48.5t-65.5 -282.5v-135
q0 -163 -17.5 -242.5t-82 -133.5t-150.5 -54h-42z" />
    <glyph glyph-name="asciitilde" unicode="~" horiz-adv-x="1344" 
d="M925 531q-90 -1 -264 81t-240 82q-120 0 -286 -135v121q155 122 293 122q83 0 257 -81t242 -81q122 0 282 139v-123q-161 -125 -284 -125z" />
    <glyph glyph-name="nonbreakingspace" unicode="&#xa0;" horiz-adv-x="469" 
 />
    <glyph glyph-name="exclamdown" unicode="&#xa1;" horiz-adv-x="427" 
d="M283 -441h-139l19 1047h105zM219 724q-77 0 -77 126t74 127q74 0 73 -126q0 -60 -20 -93.5t-50 -33.5z" />
    <glyph glyph-name="cent" unicode="&#xa2;" horiz-adv-x="768" 
d="M227 658q0 -158 63 -251.5t168 -119.5v754q-231 -79 -231 -383zM458 1332h102v-171q83 -13 148 -52v-130q-72 53 -148 65v-753q82 17 148 67v-137q-71 -34 -148 -50v-171h-102v171q-182 31 -272.5 173t-90.5 322t98.5 324.5t264.5 170.5v171z" />
    <glyph glyph-name="sterling" unicode="&#xa3;" horiz-adv-x="917" 
d="M398 242q54 0 160 -73t153 -73t129 61v-134q-76 -45 -146 -45t-180 75t-160 75q-49 0 -82.5 -28t-75.5 -100h-135q41 74 129 202t115.5 211.5t28.5 195.5h-234v109h206q-9 24 -32 73q-67 146 -67 228q0 145 104.5 241t248.5 96t280 -85v-147q-140 117 -252 117
t-182.5 -61.5t-70.5 -145.5t68 -228q24 -50 38 -88h271v-109h-253q-6 -115 -41.5 -192t-129.5 -215q56 40 110 40z" />
    <glyph glyph-name="currency" unicode="&#xa4;" horiz-adv-x="1387" 
d="M352 660q0 -140 102.5 -237.5t241.5 -97.5t239 100.5t100 240.5t-100 241t-244 101t-241.5 -104t-97.5 -244zM692 1115q77 0 138.5 -20t141.5 -76l126 126l73 -76l-125 -125q96 -134 96 -277q0 -78 -20.5 -139.5t-75.5 -138.5l125 -124l-73 -75l-126 125
q-132 -96 -279 -96t-276 96l-126 -125l-75 75l126 124q-96 133 -96 279t96 276l-126 125l75 76l126 -126q134 96 275 96z" />
    <glyph glyph-name="yen" unicode="&#xa5;" 
d="M824 777v-90h-317l-20 -46v-252h337v-91h-337v-298h-137v298h-341v91h341v252l-20 46h-321v90h280l-280 618h156l256 -618l245 618h158l-277 -618h277z" />
    <glyph glyph-name="brokenbar" unicode="&#xa6;" horiz-adv-x="1045" 
d="M468 255h109v-721h-109v721zM468 1418h109v-718h-109v718z" />
    <glyph glyph-name="section" unicode="&#xa7;" horiz-adv-x="853" 
d="M175 640q0 -93 60.5 -157.5t150.5 -132.5t181 -141q99 96 99 209q0 76 -48 137t-233 214l-94 78q-116 -114 -116 -207zM700 -64q0 -120 -82 -206t-200 -86t-200 78t-97 256h116q26 -239 177 -239q78 0 127.5 55.5t49.5 138.5q1 83 -57 148q-58 66 -201 172t-202 187.5
t-59 171.5t33 152.5t132 137.5q-78 106 -78 211t79.5 182t188.5 77q149 0 210 -101.5t68 -226.5h-109q-25 235 -172 235q-68 0 -112 -50.5t-44 -114.5t42 -120.5t201 -183.5t212.5 -205.5t53.5 -172.5t-37 -157t-124 -118q84 -101 84 -221z" />
    <glyph glyph-name="dieresis" unicode="&#xa8;" horiz-adv-x="683" 
d="M490 1361q74 0 74 -126t-74 -126t-75 126q1 126 75 126zM192 1363q74 -1 73 -127q1 -126 -73 -126t-74 126t74 127z" />
    <glyph glyph-name="copyright" unicode="&#xa9;" horiz-adv-x="1643" 
d="M833 992q-113 0 -197 -82t-84 -238t71 -259t198 -103q93 0 149.5 47.5t100.5 157.5l90 -31q-48 -150 -141.5 -206.5t-195.5 -56.5t-191.5 55.5t-139.5 161.5t-50 222q0 160 101.5 287t281.5 127q116 0 192.5 -53.5t135.5 -167.5l-98 -27q-71 166 -223 166zM1493 640
q0 307 -202.5 497.5t-474.5 190.5t-468.5 -196.5t-196.5 -473.5t197.5 -474t479.5 -197t473.5 203.5t191.5 449.5zM1586 676q0 -348 -230 -565t-540 -217t-534 224t-224 538t224.5 538t539.5 224q217 0 400 -113.5t273.5 -290.5t90.5 -338z" />
    <glyph glyph-name="ordfeminine" unicode="&#xaa;" horiz-adv-x="555" 
d="M147 947q0 -55 29.5 -83t77.5 -28t84 48t36 113v79q-134 -21 -180.5 -47.5t-46.5 -81.5zM232 737q-82 0 -138.5 57.5t-56.5 155.5t82.5 146.5t254.5 67.5v38q0 53 -32 85t-88 32t-170 -86v125q100 60 192 60t147.5 -57t55.5 -145v-351q0 -29 23 -29q12 0 48 20v-101
q-47 -13 -74 -13q-84 0 -100 74q-62 -79 -144 -79z" />
    <glyph glyph-name="guillemotleft" unicode="&#xab;" horiz-adv-x="597" 
d="M454 789h103l-103 -315l103 -317h-103l-107 317zM201 789h102l-102 -315l102 -317h-102l-108 317z" />
    <glyph glyph-name="logicalnot" unicode="&#xac;" horiz-adv-x="1365" 
d="M142 964h1080v-595h-106v487h-974v108z" />
    <glyph glyph-name="sfthyphen" unicode="&#xad;" horiz-adv-x="576" 
d="M67 550h443v-125h-443v125z" />
    <glyph glyph-name="registered" unicode="&#xae;" horiz-adv-x="1643" 
d="M614 680h132q160 0 207.5 40t47.5 114t-52.5 104.5t-186.5 30.5h-148v-289zM512 1051h334q121 0 197 -54t76 -146t-52 -158t-186 -83q88 -34 128.5 -87t138.5 -276h-120q-97 220 -157.5 284t-211.5 64h-45v-348h-102v804zM1493 640q0 307 -202.5 497.5t-474.5 190.5
t-468.5 -196.5t-196.5 -473.5t197.5 -474t479.5 -197t473.5 203.5t191.5 449.5zM1586 676q0 -348 -230 -565t-540 -217t-534 224t-224 538t224.5 538t539.5 224q217 0 400 -113.5t273.5 -290.5t90.5 -338z" />
    <glyph glyph-name="glyph113" unicode="&#xaf;" horiz-adv-x="1024" 
d="M-12 1651h1048v-102h-1048v102z" />
    <glyph glyph-name="degree" unicode="&#xb0;" horiz-adv-x="811" 
d="M610 1138q0 83 -60.5 142t-144.5 59t-144 -60.5t-60 -144.5t60 -143.5t146 -59.5t144.5 62t58.5 145zM694 1128q0 -116 -86 -197.5t-203 -81.5t-202 82t-85 200t84.5 202.5t207.5 84.5t203.5 -87t80.5 -203z" />
    <glyph glyph-name="plusminus" unicode="&#xb1;" horiz-adv-x="1365" 
d="M142 108h1082v-108h-1082v108zM142 875h485v488h108v-488h489v-108h-489v-485h-108v485h-485v108z" />
    <glyph glyph-name="twosuperior" unicode="&#xb2;" horiz-adv-x="640" 
d="M565 708v-103h-458v103q0 98 39.5 158t141.5 142t126 115t24 73t-37 72.5t-93 32.5t-149 -59q-11 -8 -15 -10v118q91 52 186 52t157.5 -55.5t62.5 -139.5t-40.5 -134.5t-166.5 -150.5t-126 -182v-32h348z" />
    <glyph glyph-name="threesuperior" unicode="&#xb3;" horiz-adv-x="640" 
d="M542 834q0 -104 -75 -173t-169 -69t-173 42v125q76 -64 147 -64t114 41.5t43 103.5t-41 95t-111 33h-77v95h36q73 0 115 34t42 87t-32 84.5t-80 31.5q-80 0 -156 -66v122q89 45 173 45t145 -49.5t61 -129.5t-31 -119t-99 -77q168 -46 168 -192z" />
    <glyph glyph-name="acute" unicode="&#xb4;" horiz-adv-x="683" 
d="M375 1383h149l-215 -293h-84z" />
    <glyph glyph-name="mu" unicode="&#xb5;" horiz-adv-x="917" 
d="M412 -26q-59 0 -154 35v-417h-119v1471h119v-759q0 -90 10 -128t46.5 -67t102.5 -29t127.5 46.5t87 118t25.5 224.5v594h121v-1063h-121v104q-118 -130 -245 -130z" />
    <glyph glyph-name="paragraph" unicode="&#xb6;" horiz-adv-x="1323" 
d="M1267 1395v-130h-196v-1709h-131v1709h-263v-1709h-131v1002q-129 0 -220.5 39.5t-160 140.5t-68.5 239q0 194 132.5 306t346.5 112h691z" />
    <glyph glyph-name="cedilla" unicode="&#xb8;" horiz-adv-x="683" 
d="M489 42v-165h49q74 0 123.5 -45t49.5 -117t-67.5 -126t-153.5 -54t-159 26v106q73 -40 131 -40t96 23.5t38 58.5t-30.5 53t-65.5 18h-111v262h100z" />
    <glyph glyph-name="onesuperior" unicode="&#xb9;" horiz-adv-x="640" 
d="M428 1395v-788h-106v544h-132v90h40q41 0 72.5 28t31.5 73v53h94z" />
    <glyph glyph-name="ordmasculine" unicode="&#xba;" horiz-adv-x="576" 
d="M290 1319q-68 0 -108.5 -67.5t-40.5 -175.5t39 -174t108 -66t107.5 66t38.5 176t-38 175.5t-106 65.5zM284 1418q110 0 186 -91t76 -245t-73 -249.5t-187 -95.5t-184.5 96.5t-70.5 244.5t71.5 244t181.5 96z" />
    <glyph glyph-name="guillemotright" unicode="&#xbb;" horiz-adv-x="597" 
d="M143 157h-102l102 315l-102 317h102l108 -317zM397 157h-102l102 315l-102 317h102l108 -317z" />
    <glyph glyph-name="onequarter" unicode="&#xbc;" horiz-adv-x="1493" 
d="M1241 256v286l-201 -286h201zM1348 718v-462h99v-100h-99v-226h-107v226h-306v100l306 462h107zM435 1395v-787h-106v544h-132v90h40q41 0 72.5 28t31.5 73v52h94zM1241 1395l-835 -1483h-112l823 1483h124z" />
    <glyph glyph-name="onehalf" unicode="&#xbd;" horiz-adv-x="1493" 
d="M1418 33v-102h-458v102q0 99 39.5 159t142.5 142t126 115t23 73t-36.5 72t-92.5 32t-149 -59q-12 -8 -16 -10v118q91 52 187 52t157.5 -56.5t61.5 -138.5t-40.5 -133.5t-166.5 -151.5t-126 -181v-33h348zM435 1395v-787h-106v544h-132v90h40q41 0 72.5 28t31.5 73v52h94z
M1241 1395l-835 -1483h-112l823 1483h124z" />
    <glyph glyph-name="threequarters" unicode="&#xbe;" horiz-adv-x="1493" 
d="M1241 256v286l-201 -286h201zM1348 718v-462h100v-100h-100v-226h-107v226h-305v100l305 462h107zM1241 1395l-835 -1483h-112l823 1483h124zM550 836q0 -105 -75 -173.5t-167 -68.5t-175 41v126q76 -64 147 -64t114 41.5t43 102.5t-41 94.5t-111 33.5h-77v95h36
q73 0 115 34.5t42 87.5t-32 84.5t-95 31.5t-141 -67v123q87 45 175 45t146 -52t58 -143q0 -112 -130 -180q168 -46 168 -192z" />
    <glyph glyph-name="questiondown" unicode="&#xbf;" horiz-adv-x="853" 
d="M409 -466q-154 0 -259.5 97t-105.5 248q0 105 50.5 175.5t206.5 207.5q77 67 102 118.5t25 136.5v84h125v-71q0 -132 -40 -206t-161 -177t-149.5 -154t-28.5 -109q0 -96 70 -161.5t163 -65.5t159 28.5t173 100.5v-143q-176 -109 -330 -109zM492 720q-74 0 -74 126t74 127
q74 -1 73 -127q1 -126 -73 -126z" />
    <glyph glyph-name="Agrave" unicode="&#xc0;" horiz-adv-x="896" 
d="M443 1225l-155 -630h313zM378 1395h134l389 -1395h-152l-118 482h-371l-117 -482h-149zM269 1786h147l150 -293h-83z" />
    <glyph glyph-name="Aacute" unicode="&#xc1;" horiz-adv-x="896" 
d="M443 1225l-155 -630h313zM378 1395h134l389 -1395h-152l-118 482h-371l-117 -482h-149zM514 1785h149l-215 -293h-84z" />
    <glyph glyph-name="Acircumflex" unicode="&#xc2;" horiz-adv-x="896" 
d="M443 1225l-155 -630h313zM378 1395h134l389 -1395h-152l-118 482h-371l-117 -482h-149zM371 1785h192l148 -293h-86l-159 222l-161 -222h-81z" />
    <glyph glyph-name="Atilde" unicode="&#xc3;" horiz-adv-x="896" 
d="M443 1225l-155 -630h313zM378 1395h134l389 -1395h-152l-118 482h-371l-117 -482h-149zM348 1754q74 0 130 -64t89 -64q60 0 60 118h95q0 -221 -154 -221q-70 0 -144 79q-48 51 -78 51q-61 0 -61 -116h-95q5 217 158 217z" />
    <glyph glyph-name="Adieresis" unicode="&#xc4;" horiz-adv-x="896" 
d="M443 1225l-155 -630h313zM378 1395h134l389 -1395h-152l-118 482h-371l-117 -482h-149zM604 1763q74 0 75 -126q-1 -126 -75 -126t-74 126t74 126zM306 1765q74 -1 74 -127t-74 -126t-73 126q-1 126 73 127z" />
    <glyph glyph-name="Aring" unicode="&#xc5;" horiz-adv-x="896" 
d="M443 1225l-155 -630h313zM444 1545q-30 0 -52.5 -21.5t-22.5 -53.5t21.5 -53.5t53.5 -21.5t53.5 22t21.5 53t-22.5 53t-52.5 22zM295 1461q0 69 43.5 112.5t105.5 43.5t105 -43.5t43 -111.5t-66 -117l375 -1345h-152l-118 482h-371l-117 -482h-149l370 1343
q-69 49 -69 118z" />
    <glyph glyph-name="AE" unicode="&#xc6;" horiz-adv-x="1472" 
d="M711 786v495h-123l-173 -495h296zM1384 1395v-114h-540v-495h508v-115h-508v-553h540v-118h-673v671h-336l-234 -671h-149l507 1395h885z" />
    <glyph glyph-name="Ccedilla" unicode="&#xc7;" 
d="M528 -123h49q75 0 124 -44.5t49 -116.5t-67 -126.5t-153 -54.5t-160 26v106q73 -40 130 -40t96 22.5t39 58.5t-30.5 54t-65.5 18h-110v210q-187 53 -273.5 249t-86.5 462q0 192 55.5 364.5t166 262.5t242.5 90t255 -85v-162q-133 123 -246 123q-153 0 -243 -161t-90 -433
t86.5 -435t237.5 -163q116 0 255 127v-165q-147 -87 -243 -87q-6 0 -17 1v-101z" />
    <glyph glyph-name="Egrave" unicode="&#xc8;" horiz-adv-x="896" 
d="M130 1395h677v-118h-542v-491h512v-116h-512v-554h542v-116h-677v1395zM286 1786h147l150 -293h-83z" />
    <glyph glyph-name="Eacute" unicode="&#xc9;" horiz-adv-x="896" 
d="M130 1395h677v-118h-542v-491h512v-116h-512v-554h542v-116h-677v1395zM506 1785h149l-215 -293h-84z" />
    <glyph glyph-name="Ecircumflex" unicode="&#xca;" horiz-adv-x="896" 
d="M130 1395h677v-118h-542v-491h512v-116h-512v-554h542v-116h-677v1395zM376 1785h192l148 -293h-86l-159 222l-161 -222h-81z" />
    <glyph glyph-name="Edieresis" unicode="&#xcb;" horiz-adv-x="896" 
d="M130 1395h677v-118h-542v-491h512v-116h-512v-554h542v-116h-677v1395zM620 1763q74 0 75 -126q-1 -126 -75 -126t-74 126t74 126zM322 1765q74 -1 74 -127t-74 -126t-73 126q-1 126 73 127z" />
    <glyph glyph-name="Igrave" unicode="&#xcc;" horiz-adv-x="405" 
d="M133 1395h136v-1395h-136v1395zM22 1786h147l150 -293h-83z" />
    <glyph glyph-name="Iacute" unicode="&#xcd;" horiz-adv-x="405" 
d="M133 1395h136v-1395h-136v1395zM261 1785h149l-215 -293h-84z" />
    <glyph glyph-name="Icircumflex" unicode="&#xce;" horiz-adv-x="405" 
d="M133 1395h136v-1395h-136v1395zM106 1785h192l148 -293h-86l-159 222l-161 -222h-81z" />
    <glyph glyph-name="Idieresis" unicode="&#xcf;" horiz-adv-x="405" 
d="M133 1395h136v-1395h-136v1395zM352 1763q74 0 74 -126t-74 -126t-75 126q1 126 75 126zM54 1765q74 -1 73 -127q1 -126 -73 -126t-74 126t74 127z" />
    <glyph glyph-name="Eth" unicode="&#xd0;" horiz-adv-x="1003" 
d="M790 730q0 544 -343 544h-185v-517h264v-120h-264v-517h185q183 0 263 153t80 457zM447 1395q485 0 485 -710q0 -317 -126 -501t-359 -184h-322v637h-136v120h136v638h322z" />
    <glyph glyph-name="Ntilde" unicode="&#xd1;" horiz-adv-x="1024" 
d="M775 610v785h121v-1395h-136l-400 895q-17 38 -64 162l-48 123q-3 -42 -3 -49l5 -108l1 -155l-3 -60v-808h-121v1395h138l521 -1174q-11 376 -11 389zM413 1754q73 0 129 -64t90 -64q60 0 60 118h95q0 -221 -154 -221q-70 0 -144 79q-48 51 -78 51q-61 0 -61 -116h-95
q5 217 158 217z" />
    <glyph glyph-name="Ograve" unicode="&#xd2;" horiz-adv-x="1045" 
d="M534 1294q-168 0 -248 -170t-79 -440q0 -268 83 -424t231 -155q148 0 232 160t84 447q-1 286 -89 434t-214 148zM521 1418q209 0 334 -195t125 -530t-129 -525t-330 -190t-328 188t-127 522t123 532t332 198zM328 1786h147l150 -293h-83z" />
    <glyph glyph-name="Oacute" unicode="&#xd3;" horiz-adv-x="1045" 
d="M534 1294q-168 0 -248 -170t-79 -440q0 -268 83 -424t231 -155q148 0 232 160t84 447q-1 286 -89 434t-214 148zM521 1418q209 0 334 -195t125 -530t-129 -525t-330 -190t-328 188t-127 522t123 532t332 198zM580 1785h149l-215 -293h-84z" />
    <glyph glyph-name="Ocircumflex" unicode="&#xd4;" horiz-adv-x="1045" 
d="M534 1294q-168 0 -248 -170t-79 -440q0 -268 83 -424t231 -155q148 0 232 160t84 447q-1 286 -89 434t-214 148zM521 1418q209 0 334 -195t125 -530t-129 -525t-330 -190t-328 188t-127 522t123 532t332 198zM425 1785h192l148 -293h-86l-159 222l-161 -222h-81z" />
    <glyph glyph-name="Otilde" unicode="&#xd5;" horiz-adv-x="1045" 
d="M534 1294q-168 0 -248 -170t-79 -440q0 -268 83 -424t231 -155q148 0 232 160t84 447q-1 286 -89 434t-214 148zM521 1418q209 0 334 -195t125 -530t-129 -525t-330 -190t-328 188t-127 522t123 532t332 198zM414 1754q74 0 130 -64t89 -64q60 0 60 118h95
q0 -221 -154 -221q-70 0 -144 79q-48 51 -78 51q-61 0 -61 -116h-95q5 217 158 217z" />
    <glyph glyph-name="Odieresis" unicode="&#xd6;" horiz-adv-x="1045" 
d="M534 1294q-168 0 -248 -170t-79 -440q0 -268 83 -424t231 -155q148 0 232 160t84 447q-1 286 -89 434t-214 148zM521 1418q209 0 334 -195t125 -530t-129 -525t-330 -190t-328 188t-127 522t123 532t332 198zM670 1763q74 0 75 -126q-1 -126 -75 -126t-74 126t74 126z
M372 1765q74 -1 74 -127t-74 -126t-73 126q-1 126 73 127z" />
    <glyph glyph-name="multiply" unicode="&#xd7;" horiz-adv-x="1365" 
d="M191 1083l76 76l417 -419l415 419l76 -76l-415 -419l415 -414l-76 -75l-415 413l-417 -413l-76 75l416 414z" />
    <glyph glyph-name="Oslash" unicode="&#xd8;" horiz-adv-x="1045" 
d="M522 105q149 0 232 161.5t83 433.5t-83 439l-387 -978q62 -56 155 -56zM526 1294q-154 0 -236.5 -164.5t-82.5 -439.5t86 -435l385 980q-69 59 -152 59zM538 -22q-122 0 -219 61l-54 -135h-110l81 206q-64 67 -117 211t-53 365q0 340 124.5 536t321.5 196q119 0 214 -60
l52 133h115l-82 -208q169 -201 169 -612t-160 -552t-282 -141z" />
    <glyph glyph-name="Ugrave" unicode="&#xd9;" horiz-adv-x="960" 
d="M108 1395h135v-1004q-1 -135 63 -214t176 -79t176 76q66 76 66 217v1004h137v-1004q1 -189 -103 -301t-278 -112t-272 120q-100 120 -100 322v975zM293 1786h147l150 -293h-83z" />
    <glyph glyph-name="Uacute" unicode="&#xda;" horiz-adv-x="960" 
d="M108 1395h135v-1004q-1 -135 63 -214t176 -79t176 76q66 76 66 217v1004h137v-1004q1 -189 -103 -301t-278 -112t-272 120q-100 120 -100 322v975zM538 1785h149l-215 -293h-84z" />
    <glyph glyph-name="Ucircumflex" unicode="&#xdb;" horiz-adv-x="960" 
d="M108 1395h135v-1004q-1 -135 63 -214t176 -79t176 76q66 76 66 217v1004h137v-1004q1 -189 -103 -301t-278 -112t-272 120q-100 120 -100 322v975zM383 1785h192l148 -293h-86l-159 222l-161 -222h-81z" />
    <glyph glyph-name="Udieresis" unicode="&#xdc;" horiz-adv-x="960" 
d="M108 1395h135v-1004q-1 -135 63 -214t176 -79t176 76q66 76 66 217v1004h137v-1004q1 -189 -103 -301t-278 -112t-272 120q-100 120 -100 322v975zM628 1763q74 0 75 -126q-1 -126 -75 -126t-74 126t74 126zM330 1765q74 -1 74 -127t-74 -126t-73 126q-1 126 73 127z" />
    <glyph glyph-name="Yacute" unicode="&#xdd;" 
d="M488 0h-137v639l-343 756h158l256 -617l245 617h156l-335 -756v-639zM482 1785h149l-215 -293h-84z" />
    <glyph glyph-name="Thorn" unicode="&#xde;" horiz-adv-x="960" 
d="M278 953v-516h248q131 0 190 63.5t59 187.5t-63 194.5t-186 70.5h-248zM917 697q0 -379 -391 -379h-248v-318h-136v1395h136v-315h140q173 0 271 -25t163 -118t65 -240z" />
    <glyph glyph-name="germandbls" unicode="&#xdf;" horiz-adv-x="896" 
d="M121 0v601q0 437 11 545t98.5 190t213.5 82t213 -86.5t87 -220.5q0 -224 -232 -322q164 -14 246 -117.5t82 -271.5t-108 -295t-268 -127q-66 0 -122 22v120q60 -28 118 -28q112 0 185.5 91t73.5 231t-83.5 221t-212.5 81h-81v112q110 0 192 61t82 177t-53 176t-138 60
t-133.5 -65t-48.5 -174v-1063h-122z" />
    <glyph glyph-name="agrave" unicode="&#xe0;" 
d="M196 272q0 -80 48 -130t130 -49q82 0 141 76t59 195v127q-246 -31 -312 -85t-66 -134zM67 268q-1 124 95 207q96 84 412 114v82q0 81 -52 133t-131 53q-111 0 -252 -110v143q153 85 257 85q150 1 227 -87t77 -236v-503q0 -55 52 -55q27 0 54 15v-109q-48 -22 -98 -22
q-130 0 -134 153q-99 -153 -239 -153q-114 0 -191 83t-77 207zM254 1384h147l150 -293h-83z" />
    <glyph glyph-name="aacute" unicode="&#xe1;" 
d="M196 272q0 -80 48 -130t130 -49q82 0 141 76t59 195v127q-246 -31 -312 -85t-66 -134zM67 268q-1 124 95 207q96 84 412 114v82q0 81 -52 133t-131 53q-111 0 -252 -110v143q153 85 257 85q150 1 227 -87t77 -236v-503q0 -55 52 -55q27 0 54 15v-109q-48 -22 -98 -22
q-130 0 -134 153q-99 -153 -239 -153q-114 0 -191 83t-77 207zM474 1383h149l-215 -293h-84z" />
    <glyph glyph-name="acircumflex" unicode="&#xe2;" 
d="M196 272q0 -80 48 -130t130 -49q82 0 141 76t59 195v127q-246 -31 -312 -85t-66 -134zM67 268q-1 124 95 207q96 84 412 114v82q0 81 -52 133t-131 53q-111 0 -252 -110v143q153 85 257 85q150 1 227 -87t77 -236v-503q0 -55 52 -55q27 0 54 15v-109q-48 -22 -98 -22
q-130 0 -134 153q-99 -153 -239 -153q-114 0 -191 83t-77 207zM344 1383h192l148 -293h-86l-159 222l-161 -222h-81z" />
    <glyph glyph-name="atilde" unicode="&#xe3;" 
d="M196 272q0 -80 48 -130t130 -49q82 0 141 76t59 195v127q-246 -31 -312 -85t-66 -134zM67 268q-1 124 95 207q96 84 412 114v82q0 81 -52 133t-131 53q-111 0 -252 -110v143q153 85 257 85q150 1 227 -87t77 -236v-503q0 -55 52 -55q27 0 54 15v-109q-48 -22 -98 -22
q-130 0 -134 153q-99 -153 -239 -153q-114 0 -191 83t-77 207zM308 1352q74 0 130 -64t89 -64q60 0 60 118h95q0 -221 -154 -221q-70 0 -144 79q-48 51 -78 51q-61 0 -61 -116h-95q5 217 158 217z" />
    <glyph glyph-name="adieresis" unicode="&#xe4;" 
d="M196 272q0 -80 48 -130t130 -49q82 0 141 76t59 195v127q-246 -31 -312 -85t-66 -134zM67 268q-1 124 95 207q96 84 412 114v82q0 81 -52 133t-131 53q-111 0 -252 -110v143q153 85 257 85q150 1 227 -87t77 -236v-503q0 -55 52 -55q27 0 54 15v-109q-48 -22 -98 -22
q-130 0 -134 153q-99 -153 -239 -153q-114 0 -191 83t-77 207zM564 1361q74 0 75 -126q-1 -126 -75 -126t-74 126t74 126zM266 1363q74 -1 74 -127t-74 -126t-73 126q-1 126 73 127z" />
    <glyph glyph-name="aring" unicode="&#xe5;" 
d="M196 272q0 -80 48 -130t130 -49q82 0 141 76t59 195v127q-246 -31 -312 -85t-66 -134zM67 268q-1 124 95 207q96 84 412 114v82q0 81 -52 133t-131 53q-111 0 -252 -110v143q153 85 257 85q150 1 227 -87t77 -236v-503q0 -55 52 -55q27 0 54 15v-109q-48 -22 -98 -22
q-130 0 -134 153q-99 -153 -239 -153q-114 0 -191 83t-77 207zM416 1311q-32 0 -53 -22q-22 -22 -22 -53t22 -53q21 -22 53 -22t54 22t22 53t-22 53t-54 22zM416 1383q60 -1 104 -43t45 -104t-43 -106t-106 -44t-104 44q-44 44 -44 104q0 62 44 106t104 43z" />
    <glyph glyph-name="ae" unicode="&#xe6;" horiz-adv-x="1301" 
d="M188 271q0 -78 45 -129t121 -51t133 79t57 186v131q-192 -19 -274 -63t-82 -153zM918 859q-178 0 -239 -236h432q-15 236 -193 236zM544 636q0 220 -181 220q-55 0 -103 -22t-127 -84v143q147 82 241 82t149.5 -33.5t116.5 -122.5q122 156 274 156t241.5 -112.5
t89.5 -285.5v-63h-579v-49q0 -180 77 -276t178 -96q150 0 294 155v-150q-152 -120 -302 -120q-202 0 -323 227q-82 -227 -264 -227q-113 0 -190.5 82.5t-77.5 196.5t57.5 182t159 100t269.5 49v48z" />
    <glyph glyph-name="ccedilla" unicode="&#xe7;" horiz-adv-x="725" 
d="M450 -123h49q75 0 124 -45t49 -117t-67 -126t-153 -54t-160 26v106q73 -40 130 -40t96 22.5t39 58.5t-30.5 54t-65.5 18h-111v214q-130 43 -206.5 172t-76.5 300q0 220 117 364.5t290 144.5q100 0 204 -60v-139q-101 81 -195 81q-122 0 -205 -108.5t-83 -266.5t75 -272
t202 -114q93 0 206 82v-135q-117 -66 -208 -66q-7 0 -20 1v-101z" />
    <glyph glyph-name="egrave" unicode="&#xe8;" 
d="M442 861q-76 1 -142 -59t-95 -179h432q-4 119 -61 179q-58 60 -134 59zM430 -22q-158 0 -262 136q-105 136 -105 360q1 222 109 362t264 139t246 -113q89 -112 89 -284v-62h-579v-49q0 -186 78 -281t181 -95q144 0 289 159v-150q-152 -122 -310 -122zM254 1384h147
l150 -293h-83z" />
    <glyph glyph-name="eacute" unicode="&#xe9;" 
d="M442 861q-76 1 -142 -59t-95 -179h432q-4 119 -61 179q-58 60 -134 59zM430 -22q-158 0 -262 136q-105 136 -105 360q1 222 109 362t264 139t246 -113q89 -112 89 -284v-62h-579v-49q0 -186 78 -281t181 -95q144 0 289 159v-150q-152 -122 -310 -122zM475 1383h149
l-215 -293h-84z" />
    <glyph glyph-name="ecircumflex" unicode="&#xea;" 
d="M442 861q-76 1 -142 -59t-95 -179h432q-4 119 -61 179q-58 60 -134 59zM430 -22q-158 0 -262 136q-105 136 -105 360q1 222 109 362t264 139t246 -113q89 -112 89 -284v-62h-579v-49q0 -186 78 -281t181 -95q144 0 289 159v-150q-152 -122 -310 -122zM344 1383h192
l148 -293h-86l-159 222l-161 -222h-81z" />
    <glyph glyph-name="edieresis" unicode="&#xeb;" 
d="M442 861q-76 1 -142 -59t-95 -179h432q-4 119 -61 179q-58 60 -134 59zM430 -22q-158 0 -262 136q-105 136 -105 360q1 222 109 362t264 139t246 -113q89 -112 89 -284v-62h-579v-49q0 -186 78 -281t181 -95q144 0 289 159v-150q-152 -122 -310 -122zM590 1361
q74 0 74 -126t-74 -126t-75 126q1 126 75 126zM292 1363q74 -1 73 -127q1 -126 -73 -126t-74 126t74 127z" />
    <glyph glyph-name="igrave" unicode="&#xec;" horiz-adv-x="341" 
d="M110 953h125v-953h-125v953zM8 1384h147l150 -293h-83z" />
    <glyph glyph-name="iacute" unicode="&#xed;" horiz-adv-x="341" 
d="M110 953h125v-953h-125v953zM229 1383h149l-215 -293h-84z" />
    <glyph glyph-name="icircumflex" unicode="&#xee;" horiz-adv-x="341" 
d="M110 953h125v-953h-125v953zM86 1383h192l148 -293h-86l-159 222l-161 -222h-81z" />
    <glyph glyph-name="idieresis" unicode="&#xef;" horiz-adv-x="341" 
d="M110 953h125v-953h-125v953zM320 1361q74 0 74 -126t-74 -126t-75 126q1 126 75 126zM22 1363q74 -1 73 -127q1 -126 -73 -126t-74 126t74 127z" />
    <glyph glyph-name="eth" unicode="&#xf0;" horiz-adv-x="896" 
d="M454 859q-127 0 -190.5 -105.5t-63.5 -275.5t64.5 -278.5t171.5 -108.5t172.5 97.5t65.5 283.5t-63 286.5t-157 100.5zM827 568q0 -239 -106.5 -414.5t-278.5 -175.5t-270.5 142.5t-98.5 361.5t103 356t247 137t234 -121q-42 160 -139 325l-201 -95l-43 95l190 89
q-33 59 -86 127h140q32 -31 56 -73l164 73l46 -92l-155 -72q198 -335 198 -663z" />
    <glyph glyph-name="ntilde" unicode="&#xf1;" horiz-adv-x="853" 
d="M490 975q122 0 190 -82t68 -219v-674h-127v674q0 84 -44 134q-45 50 -127 50t-148 -84t-66 -192v-582h-125v953h113l12 -136q100 158 254 158zM341 1352q73 0 129 -64t90 -64q60 0 60 118h95q0 -221 -154 -221q-70 0 -144 79q-48 51 -78 51q-61 0 -61 -116h-95
q5 217 158 217z" />
    <glyph glyph-name="ograve" unicode="&#xf2;" horiz-adv-x="875" 
d="M448 857q-125 0 -188 -106t-63 -276t62 -276t171 -106q110 1 178 99t68 282t-67 284q-67 99 -161 99zM440 975q157 -1 262 -137t105 -361q1 -129 -41 -245t-129 -185t-202 -69q-171 0 -269 141t-99 331q0 190 62 314q61 123 151 167t160 44zM273 1384h147l150 -293h-83z
" />
    <glyph glyph-name="oacute" unicode="&#xf3;" horiz-adv-x="875" 
d="M448 857q-125 0 -188 -106t-63 -276t62 -276t171 -106q110 1 178 99t68 282t-67 284q-67 99 -161 99zM440 975q157 -1 262 -137t105 -361q1 -129 -41 -245t-129 -185t-202 -69q-171 0 -269 141t-99 331q0 190 62 314q61 123 151 167t160 44zM482 1383h149l-215 -293h-84z
" />
    <glyph glyph-name="ocircumflex" unicode="&#xf4;" horiz-adv-x="875" 
d="M448 857q-125 0 -188 -106t-63 -276t62 -276t171 -106q110 1 178 99t68 282t-67 284q-67 99 -161 99zM440 975q157 -1 262 -137t105 -361q1 -129 -41 -245t-129 -185t-202 -69q-171 0 -269 141t-99 331q0 190 62 314q61 123 151 167t160 44zM351 1383h192l148 -293h-86
l-159 222l-161 -222h-81z" />
    <glyph glyph-name="otilde" unicode="&#xf5;" horiz-adv-x="875" 
d="M448 857q-125 0 -188 -106t-63 -276t62 -276t171 -106q110 1 178 99t68 282t-67 284q-67 99 -161 99zM440 975q157 -1 262 -137t105 -361q1 -129 -41 -245t-129 -185t-202 -69q-171 0 -269 141t-99 331q0 190 62 314q61 123 151 167t160 44zM328 1352q74 0 130 -64
t89 -64q60 0 60 118h95q0 -221 -154 -221q-70 0 -144 79q-48 51 -78 51q-61 0 -61 -116h-95q5 217 158 217z" />
    <glyph glyph-name="odieresis" unicode="&#xf6;" horiz-adv-x="875" 
d="M448 857q-125 0 -188 -106t-63 -276t62 -276t171 -106q110 1 178 99t68 282t-67 284q-67 99 -161 99zM440 975q157 -1 262 -137t105 -361q1 -129 -41 -245t-129 -185t-202 -69q-171 0 -269 141t-99 331q0 190 62 314q61 123 151 167t160 44zM596 1361q74 0 75 -126
q-1 -126 -75 -126t-74 126t74 126zM298 1363q74 -1 74 -127t-74 -126t-73 126q-1 126 73 127z" />
    <glyph glyph-name="divide" unicode="&#xf7;" horiz-adv-x="1365" 
d="M607 260q0 30 22 50.5t52 20.5t51.5 -21.5t21.5 -51.5t-21.5 -51t-52.5 -21t-52 22t-21 52zM143 719h1080v-105h-1080v105zM608 1078q0 29 22 49t51 20t50 -21t21 -51t-21 -51t-53 -21t-51 23t-19 52z" />
    <glyph glyph-name="oslash" unicode="&#xf8;" horiz-adv-x="875" 
d="M430 93q105 0 175.5 97.5t70.5 275.5t-61 283l-276 -631q45 -25 91 -25zM441 858q-109 0 -176.5 -101t-67.5 -276t63 -283l279 632q-50 28 -98 28zM67 454q0 251 108.5 386t264.5 135q74 0 147 -36l47 106h110l-73 -169q136 -147 136 -378t-98 -375.5t-274 -144.5
q-76 0 -143 32l-47 -106h-115l75 169q-138 130 -138 381z" />
    <glyph glyph-name="ugrave" unicode="&#xf9;" horiz-adv-x="853" 
d="M227 283q0 -190 160 -190q99 1 163 85t64 217v558h125v-953h-125v131q-107 -153 -240 -153q-134 0 -202 83t-69 222v670h124v-670zM252 1384h147l150 -293h-83z" />
    <glyph glyph-name="uacute" unicode="&#xfa;" horiz-adv-x="853" 
d="M227 283q0 -190 160 -190q99 1 163 85t64 217v558h125v-953h-125v131q-107 -153 -240 -153q-134 0 -202 83t-69 222v670h124v-670zM473 1383h149l-215 -293h-84z" />
    <glyph glyph-name="ucircumflex" unicode="&#xfb;" horiz-adv-x="853" 
d="M227 283q0 -190 160 -190q99 1 163 85t64 217v558h125v-953h-125v131q-107 -153 -240 -153q-134 0 -202 83t-69 222v670h124v-670zM343 1383h192l148 -293h-86l-159 222l-161 -222h-81z" />
    <glyph glyph-name="udieresis" unicode="&#xfc;" horiz-adv-x="853" 
d="M227 283q0 -190 160 -190q99 1 163 85t64 217v558h125v-953h-125v131q-107 -153 -240 -153q-134 0 -202 83t-69 222v670h124v-670zM576 1361q74 0 74 -126t-74 -126t-75 126q1 126 75 126zM278 1363q74 -1 73 -127q1 -126 -73 -126t-74 126t74 127z" />
    <glyph glyph-name="yacute" unicode="&#xfd;" horiz-adv-x="725" 
d="M142 -466q-36 0 -77 22v117q42 -13 69 -13q56 0 90 50t78 203l21 76l-314 964h139l235 -798l205 798h135l-320 -1111q-51 -178 -105 -243t-156 -65zM421 1383h149l-215 -293h-84z" />
    <glyph glyph-name="thorn" unicode="&#xfe;" horiz-adv-x="875" 
d="M686 476q0 166 -63 274.5t-163 108.5t-157.5 -89.5t-57.5 -209.5v-357q89 -109 192 -109q104 0 176.5 108t72.5 274zM487 975q144 0 238 -141.5t94 -353.5t-106 -357t-260 -145q-58 0 -99.5 22.5t-108.5 84.5v-529h-125v1839h125v-582q98 162 242 162z" />
    <glyph glyph-name="ydieresis" unicode="&#xff;" horiz-adv-x="725" 
d="M142 -466q-36 0 -77 22v117q42 -13 69 -13q56 0 90 50t78 203l21 76l-314 964h139l235 -798l205 798h135l-320 -1111q-51 -178 -105 -243t-156 -65zM524 1361q74 0 74 -126t-74 -126t-75 126q1 126 75 126zM226 1363q74 -1 73 -127q1 -126 -73 -126t-74 126t74 127z" />
    <glyph glyph-name="dotlessi" unicode="&#x131;" horiz-adv-x="341" 
d="M110 953h125v-953h-125v953z" />
    <glyph glyph-name="OE" unicode="&#x152;" horiz-adv-x="1600" 
d="M530 1291q-158 0 -240 -163.5t-82 -443.5t88.5 -431.5t228.5 -151.5t224 161.5t84 432.5q0 182 -39.5 322t-114.5 207t-149 67zM527 1418q204 0 305 -193v170h679v-118h-542v-490h509v-115h-509v-553h542v-119h-679v159q-131 -181 -319 -181t-316.5 186t-128.5 543
q0 190 55.5 361.5t164 260.5t239.5 89z" />
    <glyph glyph-name="oe" unicode="&#x153;" horiz-adv-x="1429" 
d="M674 474q0 164 -60 273.5t-171 109.5t-178.5 -105.5t-67.5 -275.5t62 -276.5t176 -106.5t176.5 108.5t62.5 272.5zM1046 861q-174 0 -236 -240h432q-22 240 -196 240zM450 975q175 0 287 -207q119 207 311 207q154 0 241.5 -119t87.5 -311v-29h-581v-71
q0 -167 79.5 -259.5t178.5 -92.5q139 0 289 158v-153q-154 -120 -295 -120q-208 0 -311 201q-127 -201 -301 -201t-270 143t-96 361t102.5 355.5t277.5 137.5z" />
    <glyph glyph-name="Scaron" unicode="&#x160;" horiz-adv-x="853" 
d="M369 116q109 0 195 78t85 188q0 110 -56 172q-57 62 -217 122q-317 120 -317 364q1 158 113 268t255 110t280 -96v-181q-87 81 -143 111t-120 30q-104 0 -174 -72t-70 -168t62 -150q62 -56 194 -110t192 -94q60 -41 102 -116q40 -75 40 -171q0 -179 -124 -301t-283 -122
t-323 115v175q108 -88 174 -120t135 -32zM184 1787h80l160 -223l161 223h84l-151 -294h-189z" />
    <glyph glyph-name="scaron" unicode="&#x161;" horiz-adv-x="747" 
d="M322 94q112 0 176 50t64 114q0 66 -42 103t-179 77q-136 40 -205 99t-69 169t93 190q92 80 216 79q124 0 264 -78v-142q-119 104 -244 104q-86 0 -142 -46t-55 -106q-1 -59 49 -95t164 -68q280 -78 280 -266q0 -128 -102 -214t-244 -86q-140 0 -277 87v143
q141 -114 253 -114zM143 1385h80l160 -223l161 223h84l-151 -294h-189z" />
    <glyph glyph-name="Ydieresis" unicode="&#x178;" 
d="M488 0h-137v639l-343 756h158l256 -617l245 617h156l-335 -756v-639zM572 1763q74 0 75 -126q-1 -126 -75 -126t-74 126t74 126zM274 1765q74 -1 74 -127t-74 -126t-73 126q-1 126 73 127z" />
    <glyph glyph-name="florin" unicode="&#x192;" horiz-adv-x="1131" 
d="M197 -431q-71 0 -177 31l22 100q87 -22 149 -22t99.5 29.5t46.5 70.5l259 1192h-169l20 92h168l25 108q30 127 54.5 185.5t85 97t132.5 38.5t198 -32l-21 -99q-82 20 -152 20t-103 -35.5t-55 -125.5l-38 -157h224l-22 -92h-221l-248 -1141q-31 -143 -93.5 -201.5
t-183.5 -58.5z" />
    <glyph glyph-name="circumflex" unicode="&#x2c6;" horiz-adv-x="683" 
d="M245 1383h192l148 -293h-86l-159 222l-161 -222h-81z" />
    <glyph glyph-name="caron" unicode="&#x2c7;" horiz-adv-x="683" 
d="M99 1385h80l160 -223l161 223h84l-151 -294h-189z" />
    <glyph glyph-name="macron" unicode="&#x2c9;" horiz-adv-x="683" 
d="M95 1288h494v-103h-494v103z" />
    <glyph glyph-name="breve" unicode="&#x2d8;" horiz-adv-x="683" 
d="M343 1208q64 0 115.5 39.5t61.5 115.5h98q-15 -119 -93.5 -185t-180.5 -66t-180.5 62.5t-98.5 188.5h97q33 -155 181 -155z" />
    <glyph glyph-name="dotaccent" unicode="&#x2d9;" horiz-adv-x="683" 
d="M342 1363q74 -1 73 -127q1 -126 -73 -126t-74 126t74 127z" />
    <glyph glyph-name="ring" unicode="&#x2da;" horiz-adv-x="683" 
d="M342 1311q-32 0 -54 -22t-22 -53t22 -53t54 -22t53.5 22t21.5 53t-21.5 53t-53.5 22zM340 1383q60 0 105 -42.5t45 -104.5t-43 -106t-105 -44t-105.5 43t-43.5 105t43.5 105.5t103.5 43.5z" />
    <glyph glyph-name="ogonek" unicode="&#x2db;" horiz-adv-x="683" 
d="M305 -149q0 -67 40 -110t105 -43t155 35v-84q-109 -53 -203 -53t-145.5 62.5t-51.5 145.5t41 217h92q-33 -103 -33 -170z" />
    <glyph glyph-name="tilde" unicode="&#x2dc;" horiz-adv-x="683" 
d="M234 1352q74 0 130 -64t89 -64q60 0 60 118h95q0 -221 -154 -221q-70 0 -144 79q-48 51 -78 51q-61 0 -61 -116h-95q5 217 158 217z" />
    <glyph glyph-name="hungarumlaut" unicode="&#x2dd;" horiz-adv-x="683" 
d="M538 1383h149l-215 -293h-84zM315 1383h149l-215 -293h-84z" />
    <glyph glyph-name="pi" unicode="&#x3c0;" horiz-adv-x="1124" 
d="M1024 916v-146h-232q-39 -236 -39 -459q0 -93 37 -132.5t88 -39.5q98 0 110 111h36q-18 -145 -74 -211.5t-130 -66.5t-125.5 67t-51.5 271t38 460h-235l-17 -245q-9 -129 -34.5 -275t-56.5 -212t-86 -66q-37 0 -63.5 24.5t-26.5 56.5t8.5 51.5t58.5 87.5t68 166t38 412
h-29q-67 0 -111.5 -27t-96.5 -114h-36q30 113 78 180.5t96.5 87t149.5 19.5h638z" />
    <glyph glyph-name="endash" unicode="&#x2013;" horiz-adv-x="1024" 
d="M-21 551h1066v-61h-1066v61z" />
    <glyph glyph-name="emdash" unicode="&#x2014;" horiz-adv-x="2048" 
d="M-22 552h2091v-63h-2091v63z" />
    <glyph glyph-name="quoteleft" unicode="&#x2018;" horiz-adv-x="427" 
d="M286 1046q0 -72 -29.5 -111t-69.5 -39t-64.5 42.5t-24.5 105.5q0 162 112 351h69q-61 -127 -69 -240q76 -37 76 -109z" />
    <glyph glyph-name="quoteright" unicode="&#x2019;" horiz-adv-x="427" 
d="M140 1268q0 68 29 109t69 41t65 -43t25 -106q0 -161 -112 -351h-69q60 128 69 244q-76 38 -76 106z" />
    <glyph glyph-name="quotesinglbase" unicode="&#x201a;" horiz-adv-x="427" 
d="M140 90q0 71 29.5 111t69.5 40t64.5 -43t24.5 -107q0 -162 -112 -354h-69q60 128 69 244q-76 38 -76 109z" />
    <glyph glyph-name="quotedblleft" unicode="&#x201c;" horiz-adv-x="747" 
d="M286 1046q0 -72 -29.5 -111t-69.5 -39t-64.5 42.5t-24.5 105.5q0 162 112 351h69q-61 -127 -69 -240q76 -37 76 -109zM606 1046q0 -70 -28.5 -110.5t-69.5 -40.5t-65.5 43.5t-24.5 105.5q0 162 112 351h69q-61 -127 -69 -240q76 -39 76 -109z" />
    <glyph glyph-name="quotedblright" unicode="&#x201d;" horiz-adv-x="747" 
d="M460 1268q0 70 29 110t69 40t65 -43t25 -106q0 -161 -112 -351h-69q61 127 69 241q-76 39 -76 109zM140 1268q0 69 28.5 109.5t69.5 40.5t65.5 -43t24.5 -106q0 -161 -112 -351h-69q60 128 69 243q-76 38 -76 107z" />
    <glyph glyph-name="quotedblbase" unicode="&#x201e;" horiz-adv-x="747" 
d="M460 89q0 71 28.5 111t69.5 40t65.5 -43t24.5 -105q0 -157 -112 -352h-69q60 126 69 240q-76 38 -76 109zM140 92q0 72 29.5 111.5t69.5 39.5t64.5 -43.5t24.5 -105.5q0 -158 -112 -354h-69q60 128 69 243q-76 37 -76 109z" />
    <glyph glyph-name="dagger" unicode="&#x2020;" 
d="M360 1372h111v-419h260v-104h-260v-1203h-111v1203h-259v104h259v419z" />
    <glyph glyph-name="daggerdbl" unicode="&#x2021;" 
d="M361 1374h110v-386h260v-93h-260v-771h260v-93h-260v-385h-110v385h-259v93h259v771h-259v93h259v386z" />
    <glyph glyph-name="bullet" unicode="&#x2022;" horiz-adv-x="1024" 
d="M761 712q0 -102 -74.5 -174.5t-176.5 -72.5t-174.5 74t-72.5 177t73 176.5t178 73.5t176 -76t71 -178z" />
    <glyph glyph-name="ellipsis" unicode="&#x2026;" horiz-adv-x="2048" 
d="M357 239q37 0 60 -34t23 -89q0 -127 -85 -127q-40 0 -62.5 34.5t-22.5 92.5t25 90.5t62 32.5zM1038 240q38 0 62 -34t24 -90t-24 -91.5t-63 -35.5t-62 35.5t-23 91.5t24 90t62 34zM1723 243q37 0 61.5 -33.5t24.5 -87.5t-24.5 -88t-63.5 -34t-62 34.5t-23 89.5t25 87
t62 32z" />
    <glyph glyph-name="perthousand" unicode="&#x2030;" horiz-adv-x="2155" 
d="M1137 615q-152 0 -152 -276q0 -117 38.5 -185.5t108.5 -68.5t109 71.5t39 197.5t-42.5 193.5t-100.5 67.5zM1121 719q145 0 216.5 -103.5t71.5 -265.5t-67.5 -267t-203.5 -105t-209 103t-73 275t78.5 267.5t186.5 95.5zM1783 615q-152 0 -152 -276q0 -117 38.5 -185.5
t108.5 -68.5t109.5 71.5t39.5 199.5t-43.5 193.5t-100.5 65.5zM1768 719q142 0 215 -101.5t73 -265.5t-68 -269t-204 -105t-208.5 103t-72.5 275t78.5 267.5t186.5 95.5zM378 1314q-68 0 -110.5 -68t-42.5 -198t41.5 -198t109.5 -68t107 72t39 200t-38 194t-106 66z
M764 1180q-70 0 -147 45q29 -76 29 -181q0 -160 -69 -264t-201 -104t-204.5 103.5t-72.5 273.5t74 267.5t197 97.5q69 0 185 -66t207 -67q194 0 275 209h115l-684 -1588h-113l565 1319q-86 -45 -156 -45z" />
    <glyph glyph-name="guilsinglleft" unicode="&#x2039;" horiz-adv-x="341" 
d="M190 789h102l-102 -315l102 -317h-102l-108 317z" />
    <glyph glyph-name="guilsinglright" unicode="&#x203a;" horiz-adv-x="341" 
d="M152 157h-102l102 315l-102 317h102l108 -317z" />
    <glyph glyph-name="trademark" unicode="&#x2122;" horiz-adv-x="1920" 
d="M932 1395h153l204 -649l213 649h155v-813h-91v729l-243 -729h-69l-230 729v-729h-92v813zM202 1395h636v-84h-268v-729h-102v729h-266v84z" />
    <glyph glyph-name="Omega" unicode="&#x2126;" horiz-adv-x="1573" 
d="M86 313h36q3 -54 33.5 -90.5t129.5 -36.5h270v67q-166 32 -300 178.5t-134 365.5q0 256 191 423t477 167t475 -163.5t189 -423.5q0 -210 -118.5 -351t-317.5 -196v-67h275q80 0 116 28.5t42 98.5h36v-313h-559l22 302q258 82 258 477q0 258 -125.5 395.5t-301.5 137.5
t-295 -145t-119 -355t59 -334t197 -176l23 -302h-559v313z" />
    <glyph glyph-name="partialdiff" unicode="&#x2202;" horiz-adv-x="1003" 
d="M618 853q-91 0 -182.5 -68.5t-149 -229.5t-57.5 -279t52 -184t143 -66q136 0 279.5 163.5t204.5 438.5q-37 113 -118 169t-172 56zM625 1422q155 0 260.5 -123t105.5 -380q0 -361 -166 -655.5t-426 -294.5q-147 0 -243 86t-96 249q0 239 164.5 421.5t387.5 182.5
q102 0 188 -52.5t125 -138.5q12 108 12 187q0 177 -94 276.5t-252 99.5q-192 0 -301 -159h-46q136 301 381 301z" />
    <glyph glyph-name="Delta" unicode="&#x2206;" horiz-adv-x="1259" 
d="M993 82l-399 967l-440 -967h839zM1229 0h-1200l628 1387z" />
    <glyph glyph-name="product" unicode="&#x220f;" horiz-adv-x="1685" 
d="M1239 1438h-795v-1449q0 -85 39 -120t123 -35h36v-38h-597v38h35q87 0 125 36t38 119v1334q0 86 -39.5 120.5t-123.5 34.5h-35v38h1594v-38h-35q-92 0 -127 -37.5t-35 -117.5v-1334q0 -85 39 -120t123 -35h35v-38h-597v38h35q87 0 124.5 36t37.5 119v1449z" />
    <glyph glyph-name="summation" unicode="&#x2211;" horiz-adv-x="1451" 
d="M38 -204v36l669 831l-669 817v37h1278l27 -337h-40q-27 256 -249 256h-740l562 -687l-629 -777h818q67 0 139 23t109 72.5t62 150.5l40 -7l-64 -415h-1313z" />
    <glyph glyph-name="fraction" unicode="&#x2215;" horiz-adv-x="213" 
d="M595 1395l-835 -1486h-112l823 1486h124z" />
    <glyph glyph-name="periodcentered" unicode="&#x2219;" horiz-adv-x="469" 
d="M235 781q32 0 52.5 -33t20.5 -80q0 -115 -76 -115q-71 0 -71 111q0 57 21 87t53 30z" />
    <glyph glyph-name="radical" unicode="&#x221a;" horiz-adv-x="1124" 
d="M1050 1869h74l-312 -1947l-496 1021l-198 -91l-34 64l301 151l405 -823z" />
    <glyph glyph-name="infinity" unicode="&#x221e;" horiz-adv-x="1460" 
d="M358 946q-96 0 -172.5 -70t-76.5 -206t72.5 -213t148.5 -77t147.5 56t147.5 295q-90 215 -267 215zM1062 342q129 0 208.5 93t79.5 235t-86.5 239.5t-183.5 97.5t-162 -58t-168 -344q68 -147 142 -205t170 -58zM1024 1085q167 0 275 -118.5t108 -302.5t-110.5 -299.5
t-238.5 -115.5q-98 0 -169 60t-168 226q-113 -233 -324 -233q-108 0 -225.5 82t-117.5 287q0 162 91 264t216 102q77 0 147 -41.5t146 -187.5q70 169 158 223t212 54z" />
    <glyph glyph-name="integral" unicode="&#x222b;" horiz-adv-x="561" 
d="M217.5 -64q29.5 0 29.5 52t-9 129q-38 317 -38 778l12 445q9 344 75 433.5t148 89.5q43 0 84 -30.5t41 -75.5t-25.5 -75t-63.5 -30t-70 28t-49 28q-40 0 -40 -52t23 -310t23 -419t-12 -563.5t-77 -493t-151 -90.5q-49 0 -83.5 32t-34.5 82t25 78t65 28t69 -32t58.5 -32z
" />
    <glyph glyph-name="approxequal" unicode="&#x2248;" horiz-adv-x="1344" 
d="M934 290q-59 0 -115 16.5t-193 81.5t-200 65q-124 0 -291 -135v121q154 122 293 122q86 0 258 -81t236 -81q125 0 287 139v-123q-159 -125 -275 -125zM934 773q-59 0 -115 16t-193 81t-200 65q-124 0 -291 -135v121q154 122 293 122q86 -1 258 -81t236 -80q129 0 287 138
v-123q-159 -124 -275 -124z" />
    <glyph glyph-name="notequal" unicode="&#x2260;" horiz-adv-x="1365" 
d="M143 953h602l209 532h91l-204 -532h380v-108h-424l-139 -357h563v-108h-604l-211 -530h-92l209 530h-380v108h422l139 357h-561v108z" />
    <glyph glyph-name="lessequal" unicode="&#x2264;" horiz-adv-x="1365" 
d="M142 108h1080v-108h-1080v108zM1221 361l-1078 456v97l1078 455v-117l-934 -386l934 -387v-118z" />
    <glyph glyph-name="greaterequal" unicode="&#x2265;" horiz-adv-x="1365" 
d="M142 108h1080v-108h-1080v108zM143 1369l1078 -456v-97l-1078 -455v117l934 386l-934 387v118z" />
    <glyph glyph-name="lozenge" unicode="&#x25ca;" horiz-adv-x="1012" 
d="M494 1325l-340 -616l340 -615l359 615zM548 1422l418 -713l-418 -709h-111l-391 709l391 713h111z" />
    <glyph glyph-name="fi" unicode="&#xf001;" horiz-adv-x="789" 
d="M604 1375q74 0 74 -116t-74 -116t-75 116q1 116 75 116zM127 1168q0 250 193 250q49 0 111 -23v-115q-49 22 -88 22t-65 -27.5t-26 -71.5v-250h414v-953h-126v843h-288v-843h-125v843h-129v110h129v215z" />
    <glyph glyph-name="fl" unicode="&#xf002;" horiz-adv-x="789" 
d="M344 1302q-93 0 -93 -118v-231h285v442h126v-1395h-126v843h-285v-843h-125v843h-129v110h129v215q0 250 193 250q49 0 111 -23v-115q-48 22 -86 22z" />
    </font>
</defs>
</svg>
